#TITLE:I Am The Best;
#SUBTITLE:Expi3nze;
#ARTIST:2NE1;
#TITLETRANSLIT:;
#SUBTITLETRANSLIT:;
#ARTISTTRANSLIT:;
#CREDIT:;
#BANNER:bn.png;
#BACKGROUND:bg.png;
#LYRICSPATH:;
#CDTITLE:cdtitle.png;
#MUSIC:I Am The Best.mp3;
#OFFSET:-0.209;
#SAMPLESTART:82.240;
#SAMPLELENGTH:15.469;
#SELECTABLE:YES;
#BPMS:0.000=127.999,7.000=128.005,8.000=127.999,15.000=128.005,16.000=127.999,23.000=128.005,24.000=127.999,31.000=128.005,32.000=127.999,39.000=128.005,40.000=127.999,43.000=64.006,43.167=256.023,43.500=64.006,43.667=256.023,44.000=128.005,45.000=127.999,46.000=256.023,47.000=255.998,48.000=64.001,48.333=256.023,49.000=128.005,50.000=127.999,56.000=64.001,56.333=256.023,57.000=128.005,58.000=127.999,64.000=64.001,64.333=256.023,65.000=128.005,66.000=127.999,72.000=64.001,72.333=256.023,73.000=128.005,74.000=127.999,80.000=255.998,81.000=256.023,82.000=128.005,83.000=127.999,90.000=128.005,91.000=127.999,98.000=128.005,99.000=127.999,107.000=128.005,108.000=127.999,115.000=128.005,116.000=127.999,123.000=128.005,124.000=127.999,131.000=128.005,132.000=127.999,139.000=128.005,140.000=127.999,147.000=128.005,148.000=127.999,155.000=128.005,156.000=127.999,163.000=128.005,164.000=127.999,171.000=128.005,172.000=127.999,175.000=64.006,175.167=256.023,175.500=64.006,175.667=256.023,176.000=127.999,177.000=255.998,177.250=511.997,178.000=511.997,178.250=255.998,178.500=64.006,178.667=256.023,179.000=127.999,180.000=128.005,181.000=127.999,188.000=128.005,189.000=127.999,196.000=128.005,197.000=127.999,204.000=128.005,205.000=127.999,206.000=64.006,206.167=256.023,206.500=64.006,206.667=256.023,207.000=64.000,208.000=64.001,209.000=127.999,211.000=128.005,212.000=127.999,219.000=128.005,220.000=127.999,227.000=128.005,228.000=127.999,235.000=128.005,236.000=127.999,243.000=128.005,244.000=127.999,251.000=128.005,252.000=127.999,259.000=128.005,260.000=127.999,267.000=128.005,268.000=127.999,275.000=128.005,276.000=127.999,279.000=255.998,281.000=64.001,281.333=256.023,282.000=127.999,284.000=128.005,285.000=127.999,289.000=64.001,289.333=256.023,290.000=127.999,292.000=128.005,293.000=127.999,297.000=64.001,297.333=256.023,298.000=127.999,300.000=128.005,301.000=127.999,305.000=64.001,305.333=256.023,306.000=127.999,308.000=128.005,309.000=127.999,316.000=128.005,317.000=127.999;
#STOPS:;
#BGCHANGES:;
// cache tags:
#FIRSTBEAT:0.000;
#LASTBEAT:313.250;
#SONGFILENAME:Songs/SDO pack 2/I Am The Best (2NE1)/I Am The Best.sm;
#HASMUSIC:1;
#HASBANNER:1;
#MUSICLENGTH:148.875;
// end cache tags

//---------------dance-single - ----------------
#NOTES:
     dance-single:
     :
     Hard:
     21:
     1.000,1.000,1.000,0.665,0.615,773.000,295.000,99.000,0.000,119.000:
0200
0000
0310
0110
0000
0000
0020
0000
0230
0000
0320
0000
0032
0000
0203
0000
,
2300
0000
3000
2000
0000
3000
2000
0000
3200
0000
2300
0000
3002
0000
0203
0000
,
0320
0000
0030
0010
0010
0000
0020
0000
0230
0000
0320
0000
0032
0000
0203
0000
,
2300
0000
3000
2000
0000
3000
2000
0000
3200
0000
2300
0000
3002
0000
0200
0000
,
1313
0000
0011
0110
1100
0001
1001
0001
,
1001
0000
1000
0100
0010
0000
0001
0000
0011
0000
1000
0000
1001
0000
1001
0000
,
1001
0001
1100
1001
0011
1000
1010
1000
,
0011
0000
1000
0100
1000
0000
0100
0000
1100
0000
1000
0000
0011
0000
0110
0000
,
1100
0001
1100
0110
0011
1000
1001
1000
,
1001
0000
1000
0101
1001
0000
1000
0000
0011
0000
1000
0000
0011
0000
1001
0000
,
1100
0001
1100
1100
0010
0010
2010
0010
,
0010
0000
0010
0100
0010
0000
0010
0000
0012
0000
0000
0000
0000
0000
0000
0000
,
0203
0000
0000
0300
3111
0000
1000
1000
1110
0000
1100
0000
0001
0000
1000
1000
,
1011
0000
1001
0000
1001
0000
1000
1000
0011
0000
0110
0000
1100
0000
1000
0000
,
0022
0000
0000
0033
0011
0000
1000
1000
1101
0000
1001
0000
1100
0000
1000
0010
,
1100
0000
1001
0000
0011
0000
0001
0001
1101
0000
1100
0000
1100
0000
0001
0000
,
0022
0000
0000
0033
0011
0000
1000
1000
1110
0000
1100
0000
0001
0000
1000
1000
,
1011
0000
1001
0000
1001
0000
1000
1000
0011
0000
0110
0000
1100
0000
1000
0000
,
0022
0000
0000
0033
0011
0000
1000
1000
1101
0000
1001
0000
1100
0000
1000
0010
,
1100
1001
0011
0001
1000
0000
0000
0000
,
0000
0000
0000
0000
0210
0010
0011
1001
,
1000
0000
0001
0000
0011
0000
1001
0000
2301
0001
0010
0100
3021
0001
0100
0000
,
2031
0001
3102
0100
1203
1000
0011
2000
,
3321
0000
1000
1000
1130
0000
1000
0000
1200
0000
0010
0010
0011
0000
2000
0000
,
3302
0100
1113
0100
0020
1000
1100
1001
,
1001
0000
1000
1000
1100
0000
0100
0000
2031
0000
0001
0001
3201
0000
0010
0000
,
0312
0000
0100
0000
2013
0000
0010
0000
3020
0000
0001
0001
1100
0000
0201
0000
,
2331
0000
0100
0010
3110
0000
0110
0000
0012
0000
1000
1000
0100
1000
0020
1000
,
2033
0100
0100
0010
3011
0000
0110
0000
1100
0000
1000
0000
0011
0000
1001
0000
,
1100
0000
1000
0000
0111
0000
0010
0000
1000
0100
1000
1000
0011
1000
0100
1000
,
1001
0001
0010
0001
1100
0001
0001
0000
1100
0000
1001
0000
1011
0000
1000
0000
,
0011
0000
0110
0000
1100
0000
1000
0000
0001
0010
0001
0001
1100
0001
0010
0100
,
1001
0010
0100
1000
0011
0001
0001
0000
1100
0000
1100
0001
1110
0000
0011
0000
,
0110
0000
1100
0000
1101
0000
1001
0000
0011
1000
0011
1000
0011
1000
1100
0001
,
1100
0001
1100
0001
1010
1000
0100
1000
0011
0000
1000
1000
1101
0000
1000
0000
,
0011
0000
0011
0000
1100
0000
0001
0000
1100
1100
0001
1100
1100
0001
0010
0000
,
0101
1010
0011
0001
1100
0001
0010
1000
,
1100
0001
0001
1000
1010
0010
1000
0011
,
1000
0001
0010
1000
1100
0100
0001
0010
,
1100
0100
0001
1000
1001
0001
1000
1100
,
0010
0000
0100
0001
1100
0000
0010
0000
1000
0000
0001
0000
1100
0000
0001
0000
,
1100
0000
0001
0000
1001
0000
1000
0000
0011
0000
1000
0100
0011
0000
1000
0000
,
0011
1000
0100
0010
0210
1000
1010
1000
,
0011
1000
0011
0001
0322
0000
0130
0100
,
0100
1000
0010
0010
0020
0000
0000
0000
0000
0000
0000
0030
1113
0000
0001
0001
,
0010
0100
0102
0000
2113
0000
0100
0000
0011
0000
0100
0100
0001
0001
0100
0100
,
0001
0001
0200
0000
3321
0000
0132
0100
2013
0010
3201
0001
1320
0000
1000
0000
,
1130
0000
1102
0000
2113
0000
0100
0000
0011
0000
0100
0100
0001
0001
0100
0100
,
0001
0001
0200
0000
3321
0000
0132
0100
2013
0010
3201
0001
1320
0000
1000
0000
,
1130
0000
1102
0000
2113
0000
0100
0000
0011
0000
0100
0100
0001
0001
0100
0100
,
0001
0001
0200
0000
3321
0000
0132
0100
2013
0010
3201
0001
1320
0000
1000
0000
,
1130
1102
2013
0100
0011
0011
3011
0000
,
0000
0000
0000
0000
2000
0000
0010
0000
0100
0001
0010
0000
0001
0000
0011
0000
,
0110
0000
0000
0100
0000
0000
0001
0000
0000
0101
0000
0000
0101
0000
0000
0100
0000
0000
0001
0010
0001
0010
0001
0010
,
0001
0000
0010
0000
0001
0000
0010
0000
0000
0000
0000
0000
3002
0000
0000
0000
0000
0000
0100
0000
0000
0000
0000
0000
0010
0000
0000
1000
0000
0000
0100
0000
0000
0000
0000
0000
0010
0000
0000
0000
0000
0000
1000
0000
0000
0000
0000
0000
,
1100
0000
0000
1100
0000
0000
1000
0000
0000
0010
0000
0000
1010
0000
0000
1010
0000
0000
1000
0100
1000
0100
1000
0100
,
1000
0000
1000
0000
1000
0000
1000
0000
1000
0000
0000
0000
2003
0000
0000
0000
0000
0000
0010
0000
0000
0000
0000
0000
0100
0000
0000
0001
0000
0000
0010
0000
0000
0000
0000
0000
0001
0000
0000
0000
0000
0000
0011
0000
0000
0000
0000
0000
,
0110
0000
0000
0100
0000
0000
0001
0000
0000
0101
0000
0000
0101
0000
0000
0100
0000
0000
0001
0010
0001
0010
0001
0010
,
0001
0000
0010
0000
0001
0000
0010
0000
0000
0000
0000
0000
3002
0000
0000
0000
0000
0000
0100
0000
0000
0000
0000
0000
0010
0000
0000
1000
0000
0000
0100
0000
0000
0000
0000
0000
0010
0000
0000
0000
0000
0000
1000
0000
0000
0000
0000
0000
,
1100
0000
0000
1100
0000
0000
1000
0000
0000
0010
0000
0000
1010
0000
0000
1010
0000
0000
1000
0100
1000
0100
1000
0100
,
1000
1000
1000
1000
1000
0000
1103
0000
0000
0110
0000
0000
0011
0000
0000
0110
0000
0000
1100
0000
0000
1001
0000
0000
,
1001
0000
0000
1001
0000
0000
0011
0000
0000
0110
0000
0000
1100
0000
0000
1000
0000
0000
0001
0010
0001
0010
0001
0010
,
0001
0010
0001
0010
0000
0000
0011
0000
0000
0110
0000
0000
1100
0000
0000
1000
0000
0000
0011
0000
0000
1001
0000
0000
,
1100
0000
0000
0110
0000
0000
0011
0000
0000
0001
0000
0000
1100
0000
0000
1100
0000
0000
1000
0100
1000
0100
1000
0100
,
1000
1000
1000
1000
1000
0000
1100
0000
0000
0110
0000
0000
0011
0000
0000
0110
0000
0000
1100
0000
0000
1001
0000
0000
,
1001
0000
0000
1001
0000
0000
0011
0000
0000
0110
0000
0000
1100
0000
0000
1000
0000
0000
0001
0010
0001
0010
0001
0010
,
0001
0010
0001
0010
0000
0000
0011
0000
0000
0110
0000
0000
1100
0000
0000
1000
0000
0000
0011
0000
0000
1001
0000
0000
,
1100
0000
0000
0100
0000
0000
0100
0010
0100
0010
0100
0010
0100
0010
0100
0010
0100
0010
0100
1000
0100
1010
0100
0010
,
0100
0000
0100
0000
0100
0000
0100
0000
0100
0000
0000
0000
1110
0000
0000
0000
0000
0000
0001
0000
0000
0100
0000
0000
1000
0000
0000
0000
0000
0000
0010
0000
0000
0000
0000
0000
0010
0000
0000
0000
0000
0000
0010
0000
0000
0000
0000
0000
,
0000
1000
1000
0010
0010
0000
0110
0000
,
0000
0000
0000
0000
0220
0000
0000
0330
1111
0000
1000
1000
1110
0000
1100
0000
,
0001
0000
1000
1000
1011
0000
1001
0000
1001
0000
1000
1000
0011
0000
0011
0000
,
1000
0000
1000
0000
1000
0000
0100
0000
1000
0000
1000
0000
0022
0000
0000
1000
0000
0000
1000
0000
0000
0033
0000
0000
0011
0000
0000
0000
0000
0000
1000
0000
0000
1000
0000
0000
1101
0000
0000
0000
0000
0000
1001
0000
0000
0000
0000
0000
,
1100
0000
1000
0010
1100
0000
1001
0000
0011
0000
0001
0001
1101
0000
1100
0000
,
1000
0000
0000
0000
0000
0000
0000
0000
1000
0000
0000
0000
0000
0000
0000
0000
0100
0000
0000
0000
0000
0000
0000
0000
1000
0000
0000
0000
0000
0000
0000
0000
1000
0000
0000
0000
0000
0000
0000
0000
1000
0000
0000
0000
0000
0000
0000
0000
1022
0000
0000
0000
0000
0000
0100
0000
0000
0000
0000
0000
1000
0000
0000
0000
0000
0000
0100
0000
0000
0000
0000
0000
1000
0000
0000
0000
0000
0000
1000
0000
0000
0000
0000
0000
0033
0000
0000
0000
0000
0000
0000
0000
0000
0000
0000
0000
0011
0000
0000
0000
0000
0000
0000
0000
0000
0000
0000
0000
0000
0000
0000
0000
0000
0000
0000
0000
0000
0000
0000
0000
1000
0000
0000
0000
0000
0000
0000
0000
0000
0000
0000
0000
1000
0000
0000
0000
0000
0000
0000
0000
0000
0000
0000
0000
1110
0000
0000
0000
0000
0000
0000
0000
0000
0000
0000
0000
0000
0000
0000
0000
0000
0000
0000
0000
0000
0000
0000
0000
1100
0000
0000
0000
0000
0000
0000
0000
0000
0000
0000
0000
0000
0000
0000
0000
0000
0000
0000
0000
0000
0000
0000
0000
,
0001
0000
1000
1000
1011
0000
1001
0000
1001
0000
1000
1000
0011
0000
0011
0000
,
1000
0000
1000
0000
1000
0000
0100
0000
1000
0000
1000
0000
0022
0000
0000
1000
0000
0000
1000
0000
0000
0033
0000
0000
0011
0000
0000
0000
0000
0000
1000
0000
0000
1000
0000
0000
1101
0000
0000
0000
0000
0000
1001
0000
0000
0000
0000
0000
,
1100
0000
1000
0010
1100
0000
1001
0000
0011
0000
0001
0000
1000
0000
0000
0000
,
0000
0000
0100
0001
0000
0010
0000
0000
0000
0000
0000
0000
0000
0000
0000
0000
;
